#TITLE:Teruteru Bouzu;
#SUBTITLE:- Jungle wa Itsumo Hale Nochi Guu Final Ending;
#ARTIST:Rikako Aikawa;
#TITLETRANSLIT:;
#SUBTITLETRANSLIT:;
#ARTISTTRANSLIT:;
#CREDIT:Dj DMAxel;
#BANNER:Teruteru Bouzu (TV Size).png;
#BACKGROUND:Teruteru Bouzu (TV Size)-bg.png;
#LYRICSPATH:Teruteru Bouzu (TV Size).lrc;
#CDTITLE:Dj DMA Original Simfile.png;
#MUSIC:Teruteru Bouzu (TV Size).mp3;
#OFFSET:0.200;
#SAMPLESTART:18.301;
#SAMPLELENGTH:12.000;
#SELECTABLE:YES;
#BPMS:0.000=93.050;
#STOPS:;
#BGCHANGES:1.000=Teruteru Bouzu (TV Size).AVI=1.000=1=0=1,
99999=-nosongbg-=1.000=0=0=0 // don't automatically add -songbackground-
;
// cache tags:
#FIRSTBEAT:1.000;
#LASTBEAT:101.000;
#SONGFILENAME:songs/Otaku's Dream 3rd Anime Mix/[Dj DMAxel] Teruteru Bouzu (TV Size) - Jungle wa Itsumo Hale Nochi Guu Final ED/Teruteru Bouzu (TV Size).sm;
#HASMUSIC:1;
#HASBANNER:1;
#MUSICLENGTH:68.127;
// end cache tags

//---------------dance-single - ----------------
#NOTES:
     dance-single:
     :
     Easy:
     2:
     0.178,0.185,0.059,0.015,0.000,80.000,4.000,1.000,0.000,0.000:
0000
0010
0001
1000
,
0010
0200
0000
0000
,
0300
0001
1000
0010
,
0000
0100
0001
1000
,
0000
0010
0100
0001
,
0000
0010
1000
0100
,
0010
0001
0000
0001
,
0000
1000
0000
0010
,
0000
0100
0000
0010
,
0001
1000
1010
0000
,
0000
0010
0100
0010
,
0001
0010
0000
0000
,
0000
1000
0010
0100
,
0010
0001
1000
0010
,
0010
0000
0000
0100
,
0000
0001
1000
0010
,
0000
0100
0010
0001
,
1000
0010
0011
0100
,
1000
0010
0100
0010
,
0001
1000
0010
0100
,
0000
0001
1000
0010
,
0100
0010
0001
1000
,
0001
1000
0010
0100
,
0010
0011
0100
1000
,
0010
0100
0010
0001
,
1000
1010
0000
0000
;

//---------------dance-single - ----------------
#NOTES:
     dance-single:
     :
     Hard:
     5:
     0.296,0.278,0.176,0.059,0.000,125.000,12.000,4.000,0.000,0.000:
0000
0001
1000
0001
,
0010
0200
0001
0010
,
1000
0000
0310
0000
0100
0001
1000
0010
,
1000
0010
0100
0010
0001
0000
0010
0000
,
0001
0001
0100
1000
0010
1000
0010
0100
,
0010
0001
0010
0000
1000
0000
1010
0000
,
0100
0010
0001
1100
,
0000
1000
0020
0000
0030
0100
0100
0001
,
0000
1000
1000
0000
0010
0000
0000
0001
,
0100
1000
0010
0000
1010
0000
0000
0000
,
0000
0101
0010
0001
,
1000
0000
0001
0000
0100
0000
1000
0010
,
1000
0100
0010
0001
,
0010
0000
0001
0010
0001
0000
0001
0100
,
1000
0000
0010
0000
0100
0010
0010
0000
,
0001
0000
0100
0000
0000
1000
0010
0100
,
0000
0010
0010
0000
0100
0000
0101
0000
,
0010
0000
1010
0100
0001
0100
1010
0000
,
0011
0000
0010
0000
0011
0000
0001
0100
,
1000
0000
0010
0000
1010
0000
0100
0100
,
0010
0000
0001
0000
0101
0000
1000
1000
,
0010
0000
0100
0100
0001
0000
1000
1000
,
0010
0000
0001
0100
1000
0000
1000
0100
,
0001
0000
1000
0010
0100
0000
0002
0000
,
0010
1003
0020
0100
,
0031
1001
0000
0000
;

//---------------dance-single - ----------------
#NOTES:
     dance-single:
     :
     Challenge:
     6:
     0.340,0.315,0.367,0.029,0.029,135.000,25.000,2.000,0.000,0.000:
0000
1001
0110
1001
,
0011
0000
0020
0000
0100
0001
1000
0001
,
1000
0100
0031
1000
0010
1000
0010
0100
,
0010
0001
0010
1000
0010
0000
0110
0000
,
1001
0010
1000
0010
0100
0010
0001
0010
,
1000
0010
0100
0000
0011
0000
0101
0000
,
1000
0000
0000
0000
0001
0000
0000
0000
0100
0000
0001
0010
0100
0000
0000
0000
,
0000
1000
0020
0000
0000
0130
0100
0001
,
0000
1000
0010
0000
0001
0000
0010
1000
,
0001
0100
1000
0000
1010
0000
0000
0000
,
0000
0000
0101
0000
1000
0000
0010
1000
,
0010
0000
0100
0000
0011
0000
0010
0001
,
0100
0000
1000
0000
1010
0000
0100
0100
,
0010
0000
0001
0000
0011
0000
0001
0001
,
1000
0000
1010
0000
0100
0001
1000
0000
,
0010
0000
0110
0000
0010
0000
0010
0001
,
0100
1000
0010
0000
0100
0000
0010
1000
,
0010
0100
0110
0010
,
0011
0000
0001
0000
0100
0000
1000
0010
,
0100
0000
0011
0000
0001
0000
1000
0010
,
0100
0000
0011
0000
0101
0000
0010
0001
,
0010
0000
1000
0000
1010
0000
0100
0010
,
0100
0000
0000
0000
0001
0000
0000
0000
0011
0000
0000
0000
0100
0010
0100
0000
,
1000
0000
0000
0000
1010
0000
0000
0000
0100
0000
0000
0000
0010
0001
0010
0000
,
0001
0000
0000
0000
0101
0000
0000
0000
1000
0000
0000
0000
0010
0100
0010
0000
,
0001
1010
0000
0000
;

//---------------dance-single - ----------------
#NOTES:
     dance-single:
     :
     Medium:
     4:
     0.229,0.222,0.073,0.059,0.000,100.000,5.000,4.000,0.000,0.000:
0000
0001
0100
0010
,
0100
0000
0001
0001
0001
1000
1000
1000
,
0010
0010
0100
0000
0010
0000
0001
0000
,
1000
0010
0100
0011
,
0000
0010
0100
0010
,
0001
1000
0010
0100
,
0010
0011
0000
0100
,
0000
0001
1000
0010
,
0100
0000
0010
0000
0001
0000
1000
0100
,
0001
0100
1000
0000
0010
0000
0000
0000
,
0000
0100
0001
1000
,
0010
0100
0010
0001
,
1000
0000
0010
0000
0001
0000
1000
0100
,
0000
0000
0001
0000
1000
0000
0010
0010
,
0100
0001
1000
1010
,
0100
0000
0001
0000
1001
0000
0001
0001
,
1000
1000
0010
0100
,
0010
0002
0010
0103
,
0010
0100
0001
1000
,
0010
2000
0010
0100
,
3001
0010
0101
1000
,
0010
0100
0020
0000
,
0000
0130
0001
1000
,
0010
0100
0002
0000
,
0000
1003
0010
0100
,
0001
0010
0000
0000
;
